<?xml version="1.0" standalone="no"?>
<!DOCTYPE svg PUBLIC "-//W3C//DTD SVG 1.1//EN" "http://www.w3.org/Graphics/SVG/1.1/DTD/svg11.dtd">
<svg xmlns="http://www.w3.org/2000/svg">
<defs >
<font id="Roboto" horiz-adv-x="1016" ><font-face
    font-family="Roboto Light"
    units-per-em="2048"
    panose-1="2 0 0 0 0 0 0 0 0 0"
    ascent="1900"
    descent="-500"
    alphabetic="0" />
<glyph unicode=" " horiz-adv-x="493" />
<glyph unicode="!" horiz-adv-x="458" d="M243 405H133L309 1456H433L243 405ZM56 70Q58 104 84 128T141 152Q176 153 198 129T218 70Q216 37 191 15T132 -9T76 12T56 70Z" />
<glyph unicode="&quot;" horiz-adv-x="580" d="M361 1390L293 1083H212L287 1536H384L361 1390ZM590 1392L522 1083H440L516 1536H613L590 1392Z" />
<glyph unicode="#" horiz-adv-x="1165" d="M695 410H396L250 0H148L295 410H48L65 503H327L484 944H214L232 1040H518L667 1456H769L619 1040H919L1069 1456H1171L1022 1040H1243L1226 944H988L831 503H1077L1061 410H798L651 0H549L695 410ZM428 503H728L886
944H586L428 503Z" />
<glyph unicode="$" horiz-adv-x="1111" d="M837 366Q848 465 791 538T587 670T371 785T268 916T242 1088Q255 1254 368 1356T658 1476L693 1677H795L760 1474Q914 1451 990 1335T1050 1028H932Q946 1181 882 1274T691 1370Q557 1372 466 1294T360 1090Q343 929
489 842Q527 819 639 773T811 683Q973 565 957 369Q944 203 828 100T529 -18L496 -208H395L428 -18Q312 -7 231 50T113 203T87 418H206Q193 264 268 175T485 84Q625 82 724 161T837 366Z" />
<glyph unicode="%" horiz-adv-x="1478" d="M206 1175Q221 1307 309 1394T521 1478Q636 1474 703 1389T762 1176L755 1109Q740 968 652 882T442 799Q329 801 260 886T199 1099L206 1175ZM296 1097Q289 1002 330 945T447 885Q529 883 586 942T657 1099L665 1177Q673
1272 632 1330T516 1391Q435 1393 376 1332T304 1168L296 1097ZM775 356Q790 486 877 573T1089 658Q1206 654 1273 570T1331 357L1324 279Q1309 147 1220 61T1010 -22Q895 -20 827 66T768 279L775 356ZM864 277Q857 183 897 125T1015 64Q1095 62 1153 120T1226
279L1234 358Q1241 455 1202 512T1084 571Q1000 573 942 512T872 349L864 277ZM350 122L277 175L1162 1306L1231 1258L350 122Z" />
<glyph unicode="&amp;" horiz-adv-x="1232" d="M428 796L391 861Q308 1014 319 1137Q331 1289 432 1384T684 1477Q811 1473 887 1395T955 1199Q942 1033 726 883L576 779L887 318Q999 466 1029 651H1137Q1104 401 951 229L1103 0H971L874 144Q680 -24 462 -20Q282
-18 172 87T74 363Q83 472 162 575T428 796ZM467 82Q639 79 812 232L494 701L483 716L434 681L382 640Q211 500 195 363Q178 242 255 163T467 82ZM438 1142Q425 1023 524 862L704 992Q828 1089 839 1200Q847 1275 800 1325T676 1375Q580 1377 515 1310T438 1142Z"
/>
<glyph unicode="&apos;" horiz-adv-x="348" d="M344 1389L281 1090H190L266 1536H367L344 1389Z" />
<glyph unicode="(" horiz-adv-x="643" d="M736 1633L757 1551Q597 1442 479 1245T295 773T233 240L235 174Q257 -226 454 -392L419 -469Q219 -320 151 -3Q110 190 120 392Q131 653 216 915T434 1360T736 1633Z" />
<glyph unicode=")" horiz-adv-x="657" d="M495 577Q436 201 280 -74T-103 -471L-124 -393Q65 -264 192 -18T375 572L379 592Q403 761 401 921Q396 1152 339 1311T180 1555L215 1631Q371 1517 448 1287T514 769Q510 675 498 593L495 577Z" />
<glyph unicode="*" horiz-adv-x="853" d="M417 1003L114 1111L161 1208L464 1084L525 1456H629L556 1087L890 1212L905 1106L561 991L727 695L638 635L484 940L234 639L156 705L417 1003Z" />
<glyph unicode="+" horiz-adv-x="1131" d="M637 740H1067L1047 628H618L534 146H414L498 628H76L96 740H517L598 1206H718L637 740Z" />
<glyph unicode="," horiz-adv-x="390" d="M-17 -273L-84 -218Q31 -86 53 46L77 188H193L171 44Q138 -144 -17 -273Z" />
<glyph unicode="-" horiz-adv-x="578" d="M512 592H45L63 693H530L512 592Z" />
<glyph unicode="." horiz-adv-x="484" d="M48 72Q51 107 76 131T137 157Q173 158 196 133T216 72Q214 37 189 15T128 -9T70 13T48 72Z" />
<glyph unicode="/" horiz-adv-x="799" d="M13 -125H-101L764 1456H877L13 -125Z" />
<glyph unicode="0" horiz-adv-x="1111" d="M459 -20Q342 -17 261 42T143 214T110 468L117 576L160 860Q207 1164 341 1322T692 1476Q869 1472 957 1346T1040 992Q1038 920 1029 853L989 595Q936 278 801 126T459 -20ZM924 1084Q903 1368 686 1375Q524 1380 421
1251T281 875L237 593Q222 472 228 378Q236 235 297 159T466 80Q616 73 718 193T863 550L911 857Q930 979 924 1084Z" />
<glyph unicode="1" horiz-adv-x="1111" d="M571 0H451L679 1308L268 1162L289 1280L797 1461H820L571 0Z" />
<glyph unicode="2" horiz-adv-x="1111" d="M925 0H38L53 97L683 720Q882 921 901 1082Q917 1207 851 1289T656 1375Q516 1379 415 1287T287 1037L172 1036Q196 1231 331 1355T660 1477Q841 1473 940 1366T1023 1092Q1003 895 775 665L203 101H942L925 0Z" />
<glyph unicode="3" horiz-adv-x="1111" d="M427 793L542 791Q693 791 798 870T919 1083Q933 1215 866 1293T669 1375Q531 1377 436 1295T315 1075L199 1074Q221 1253 354 1366T675 1477Q854 1473 954 1363T1038 1079Q1029 971 954 883T745 742Q855 703 910 613T956
403Q940 212 803 94T468 -20Q282 -16 170 99T71 395H189Q177 261 255 173T474 81Q624 77 724 164T838 399Q850 527 778 603T558 689L537 690L411 691L427 793Z" />
<glyph unicode="4" horiz-adv-x="1111" d="M825 469H1045L1027 368H808L743 0H624L688 368H27L35 435L862 1456H996L825 469ZM190 469H705L849 1289L787 1206L190 469Z" />
<glyph unicode="5" horiz-adv-x="1111" d="M233 748L411 1456H1122L1104 1345H499L367 853Q486 934 639 932Q818 930 915 800T994 471Q974 248 843 112T508 -21Q331 -17 231 94T130 384H243Q245 243 315 164T514 80Q666 76 762 184T874 470Q888 624 818 721T613
823Q460 827 329 720L233 748Z" />
<glyph unicode="6" horiz-adv-x="1111" d="M955 1468L943 1363H911Q673 1358 510 1210T270 783Q422 960 643 956Q758 954 840 893T960 722T985 484Q976 382 936 287T830 121Q694 -25 501 -21Q335 -16 233 95T115 385Q106 477 139 674Q201 1047 408 1257T939 1468H955ZM618
853Q500 855 390 786T249 615L236 511Q223 396 250 299T342 142T506 81Q601 79 678 130T805 274T868 480Q885 641 818 745T618 853Z" />
<glyph unicode="7" horiz-adv-x="1111" d="M1127 1387L310 0H180L992 1354H191L207 1456H1135L1127 1387Z" />
<glyph unicode="8" horiz-adv-x="1111" d="M1057 1090Q1046 972 971 884T766 743Q872 694 926 602T972 395Q957 208 815 92T465 -20Q277 -16 167 92T72 378Q83 505 168 601T400 751Q310 799 266 884T230 1072Q243 1252 374 1366T697 1476Q869 1472 970 1366T1057
1090ZM853 394Q867 523 788 608T575 697Q421 699 314 607T191 376Q176 245 254 164T470 80Q622 76 730 163T853 394ZM937 1091Q949 1208 880 1289T690 1375Q552 1377 457 1291T348 1073Q336 955 405 877T595 797Q728 793 826 877T937 1091Z" />
<glyph unicode="9" horiz-adv-x="1111" d="M879 673Q803 578 704 526T500 477Q386 479 304 544T185 718T159 958Q174 1103 242 1224T418 1412T654 1477Q826 1473 924 1357T1029 1032Q1032 920 1001 735Q940 375 746 184T251 -12H202L214 92H254Q500 96 654 239T879
673ZM520 580Q634 576 736 645T898 837Q912 959 912 1008Q912 1179 845 1274T650 1374Q553 1376 474 1323T342 1172T277 963Q266 862 291 774T375 634T520 580Z" />
<glyph unicode=":" horiz-adv-x="427" d="M287 72Q290 107 315 131T376 157Q412 158 435 133T455 72Q453 37 428 15T367 -9T309 13T287 72ZM191 995Q194 1030 219 1054T280 1080Q316 1081 339 1056T359 995Q357 960 332 938T271 914T213 936T191 995Z" />
<glyph unicode=";" horiz-adv-x="397" d="M180 995Q183 1030 208 1054T269 1080Q305 1081 328 1056T348 995Q346 960 321 938T260 914T202 936T180 995ZM-17 -273L-84 -218Q31 -86 53 46L77 188H193L171 44Q138 -144 -17 -273Z" />
<glyph unicode="&lt;" horiz-adv-x="1026" d="M212 652L836 352L814 231L75 612L92 708L964 1087L940 954L212 652Z" />
<glyph unicode="=" horiz-adv-x="1109" d="M995 829H183L202 935H1014L995 829ZM923 418H112L131 524H942L923 418Z" />
<glyph unicode="&gt;" horiz-adv-x="1039" d="M820 662L182 965L203 1083L960 704L943 607L54 227L77 358L820 662Z" />
<glyph unicode="?" horiz-adv-x="912" d="M339 402Q352 512 400 597T547 766T686 897T752 996T784 1110Q797 1223 746 1295T587 1371Q472 1373 393 1306T287 1116L172 1115Q196 1281 313 1381T596 1477Q749 1473 834 1373T905 1111Q887 924 699 755L586 660Q480
565 449 404L339 402ZM256 70Q259 104 283 127T342 152T399 129T419 70Q416 37 391 15T333 -9Q298 -10 276 12T256 70Z" />
<glyph unicode="@" horiz-adv-x="1824" d="M1229 -20Q1143 -18 1087 32T1024 173Q943 64 867 20T708 -21Q616 -18 563 46T504 235Q493 408 569 599T763 890T1023 989Q1100 987 1158 959T1274 882L1139 308L1131 231Q1126 158 1156 113T1247 65Q1353 61 1433 143T1561
380T1617 722Q1623 908 1564 1045T1383 1253T1082 1327Q842 1331 639 1193T309 802T175 274Q169 88 231 -60T414 -284T703 -362Q870 -366 1040 -284L1063 -366Q912 -455 698 -453Q507 -452 366 -369T150 -124T74 246Q74 469 153 689T375 1079T701 1336T1088 1420Q1284
1417 1423 1337T1636 1102T1709 745Q1709 531 1646 350T1474 73T1229 -20ZM609 285Q604 189 637 134T737 75Q830 70 915 144T1040 330L1170 850Q1110 895 1028 899Q870 904 760 750T615 357L609 285Z" />
<glyph unicode="A" horiz-adv-x="1251" d="M909 408H271L54 0H-79L708 1456H825L1106 0H985L909 408ZM326 513H889L745 1302L326 513Z" />
<glyph unicode="B" horiz-adv-x="1227" d="M73 0L326 1456L736 1455Q945 1450 1051 1352T1141 1082Q1130 968 1058 884T863 755Q967 723 1025 631T1074 418Q1059 228 921 114T559 0H73ZM317 700L213 104L563 103Q721 103 828 186T953 416Q966 543 896 619T690
699L317 700ZM334 803L653 802Q809 804 906 881T1018 1087Q1043 1340 733 1350L430 1351L334 803Z" />
<glyph unicode="C" horiz-adv-x="1300" d="M1150 454Q1099 229 943 102T562 -20Q367 -16 252 118T127 481Q124 559 134 636L161 812Q192 1013 285 1168T513 1401T808 1476Q1016 1472 1133 1344T1248 999L1127 1000Q1127 1175 1043 1271T802 1372Q604 1377 465
1225T283 803L253 603L249 513Q247 395 283 294T393 140T568 84Q742 78 859 171T1031 453L1150 454Z" />
<glyph unicode="D" horiz-adv-x="1311" d="M73 0L326 1456L705 1455Q874 1455 998 1369T1177 1130T1210 794L1192 673Q1146 370 950 185T469 0H73ZM430 1351L213 104L473 103Q626 103 752 173T960 370T1068 658T1095 880T1089 998Q1066 1158 967 1252T711 1350L430 1351Z" />
<glyph unicode="E" horiz-adv-x="1140" d="M977 698H317L213 104H973L955 0H73L326 1456H1203L1184 1351H430L334 802H995L977 698Z" />
<glyph unicode="F" horiz-adv-x="1127" d="M972 680H314L195 0H73L326 1456H1204L1185 1351H430L331 785H991L972 680Z" />
<glyph unicode="G" horiz-adv-x="1368" d="M1131 173Q1057 78 919 28T610 -20Q407 -18 281 119T143 484Q138 566 149 644L174 810Q221 1116 395 1298T829 1476Q1029 1472 1149 1357T1275 1045H1155Q1148 1197 1063 1282T824 1371Q620 1376 479 1224T296 806L272
650Q262 585 264 516Q267 318 360 203T614 85Q871 80 1009 211L1075 587H696L714 691H1215L1131 173Z" />
<glyph unicode="H" horiz-adv-x="1416" d="M1122 0H999L1121 698H317L195 0H73L326 1456H448L334 802H1138L1252 1456H1376L1122 0Z" />
<glyph unicode="I" horiz-adv-x="539" d="M221 0H99L352 1456H474L221 0Z" />
<glyph unicode="J" horiz-adv-x="1103" d="M959 1456H1082L907 433Q878 230 744 103T410 -21Q222 -17 124 95T44 401H166Q151 255 217 171T418 83Q557 79 657 174T784 431L959 1456Z" />
<glyph unicode="K" horiz-adv-x="1263" d="M523 721L285 516L195 0H73L326 1456H448L313 680L546 890L1164 1456H1327L616 802L1110 0H972L523 721Z" />
<glyph unicode="L" horiz-adv-x="1057" d="M214 104H912L894 0H73L326 1456H449L214 104Z" />
<glyph unicode="M" horiz-adv-x="1729" d="M484 1456L781 174L1525 1456H1690L1437 0H1315L1426 639L1545 1269L804 0H710L408 1279L305 633L195 0H73L326 1456H484Z" />
<glyph unicode="N" horiz-adv-x="1420" d="M1128 0H1010L413 1248L196 0H73L326 1456H444L1042 207L1259 1456H1380L1128 0Z" />
<glyph unicode="O" horiz-adv-x="1354" d="M577 -20Q373 -16 254 121T124 489Q120 569 131 648L151 786Q196 1091 371 1284Q550 1481 813 1476Q947 1473 1047 1411T1204 1229T1265 966Q1268 880 1256 798L1233 644Q1198 438 1104 284T874 54T577 -20ZM1136 809Q1144
872 1145 937Q1145 1059 1107 1159T993 1312T807 1369Q607 1374 466 1226T280 824Q244 619 245 521Q245 319 333 205T583 87Q796 82 935 241T1114 661L1136 809Z" />
<glyph unicode="P" horiz-adv-x="1233" d="M298 593L195 0H73L326 1456L800 1455Q1004 1449 1115 1335T1209 1028Q1189 824 1044 708T666 592L298 593ZM316 697L671 696Q844 696 956 784T1087 1027Q1103 1175 1024 1260T797 1350L430 1351L316 697Z" />
<glyph unicode="Q" horiz-adv-x="1354" d="M851 50L1067 -183L976 -254L734 2Q648 -19 570 -19Q437 -18 337 45T182 226T120 491Q116 573 127 649L149 798Q179 999 274 1159T506 1399T808 1476Q1012 1472 1132 1335T1261 966Q1264 880 1252 798L1226 626Q1151
211 851 50ZM1132 808Q1140 871 1141 937Q1141 1060 1102 1161T987 1314T802 1369Q600 1374 460 1224T275 818Q240 613 240 521Q240 324 327 208T578 87Q790 82 930 239T1110 663L1132 808Z" />
<glyph unicode="R" horiz-adv-x="1271" d="M710 606H299L193 0H70L323 1456L754 1455Q972 1455 1090 1342T1189 1035Q1174 889 1080 783T828 629L1076 14L1075 0H945L710 606ZM317 711L677 710Q831 710 940 800T1067 1036Q1084 1176 1005 1261T772 1350L428 1351L317
711Z" />
<glyph unicode="S" horiz-adv-x="1187" d="M936 365Q959 553 735 641L544 710L482 735Q198 856 219 1092Q228 1208 301 1296T493 1431T747 1476Q876 1473 977 1417T1129 1262T1169 1041H1046Q1060 1189 977 1278T741 1371Q583 1373 471 1299T342 1095Q329 992
402 920T658 793Q890 719 980 616T1059 368Q1048 248 975 160T780 24T518 -20Q379 -19 268 37T101 190T56 416H178Q163 264 259 175T524 83T806 159T936 365Z" />
<glyph unicode="T" horiz-adv-x="1196" d="M1268 1351H785L550 0H428L663 1351H179L198 1456H1287L1268 1351Z" />
<glyph unicode="U" horiz-adv-x="1316" d="M1306 1456L1137 471Q1101 241 944 108T562 -21Q421 -18 319 44T170 218T140 469L309 1456H430L262 468Q241 299 324 195T568 84Q736 78 857 177T1011 452L1183 1456H1306Z" />
<glyph unicode="V" horiz-adv-x="1235" d="M536 180L538 149L552 180L1196 1456H1334L580 0H463L166 1456H289L536 180Z" />
<glyph unicode="W" horiz-adv-x="1791" d="M408 389L415 174L502 387L974 1456H1084L1220 377L1237 171L1319 397L1739 1456H1867L1277 0H1160L1017 1144L1006 1278L950 1139L444 0H327L193 1456H315L408 389Z" />
<glyph unicode="X" horiz-adv-x="1225" d="M642 842L1135 1456H1287L703 732L1067 0H929L618 634L106 0H-45L558 744L204 1456H342L642 842Z" />
<glyph unicode="Y" horiz-adv-x="1199" d="M600 664L1168 1456H1316L643 542L549 0H427L524 555L174 1456H311L600 664Z" />
<glyph unicode="Z" horiz-adv-x="1198" d="M151 104H1020L1001 0H-18L-1 99L1051 1351H241L260 1456H1223L1207 1362L151 104Z" />
<glyph unicode="[" horiz-adv-x="486" d="M630 1562H426L150 -210H354L337 -312H14L323 1664H646L630 1562Z" />
<glyph unicode="\" horiz-adv-x="793" d="M197 1456H307L623 -125H512L197 1456Z" />
<glyph unicode="]" horiz-adv-x="486" d="M165 1664H489L180 -312H-144L-127 -210H77L354 1562H149L165 1664Z" />
<glyph unicode="^" horiz-adv-x="836" d="M532 1294L213 729H93L509 1456H599L762 729H653L532 1294Z" />
<glyph unicode="_" horiz-adv-x="867" d="M736 -101H-122L-104 0H754L736 -101Z" />
<glyph unicode="`" horiz-adv-x="577" d="M523 1245H423L247 1524H381L523 1245Z" />
<glyph unicode="a" horiz-adv-x="1074" d="M719 0Q714 38 716 76L725 151Q650 70 554 24T345 -20Q208 -18 123 66T46 279Q54 386 119 464T306 586T577 630L798 629L816 753Q828 864 768 931T591 1002Q473 1004 386 944T276 784H159Q179 926 305 1015T603 1103Q770
1099 860 1002T934 750L844 206L836 119Q833 65 844 12L842 0H719ZM365 85Q475 81 575 137T742 298L783 537L592 538Q410 538 295 474T168 289Q159 201 214 144T365 85Z" />
<glyph unicode="b" horiz-adv-x="1111" d="M986 536Q951 278 822 126T501 -21Q395 -19 315 26T191 148L157 0H45L312 1536H430L317 925Q456 1108 668 1102Q823 1098 907 987T994 680Q995 616 988 557L986 536ZM869 559L876 654Q879 817 819 906T640 999Q421 1003
297 777L215 287Q244 190 314 138T486 82Q635 79 735 197T869 559Z" />
<glyph unicode="c" horiz-adv-x="1033" d="M465 80Q583 76 673 145T794 333H907Q877 172 750 74T459 -21Q328 -18 239 51T111 242T85 517L89 560Q101 665 140 764T246 939T403 1060T610 1102Q776 1098 874 990T966 716L853 717Q855 842 788 919T605 1000Q481 1004
386 928T243 713T198 418Q201 257 270 171T465 80Z" />
<glyph unicode="d" horiz-adv-x="1114" d="M94 544Q117 714 187 845T358 1041T586 1102Q682 1100 761 1058T886 929L996 1536H1114L847 0H736L763 144Q622 -26 413 -20Q262 -16 177 97T87 403Q85 465 92 523L94 544ZM214 524Q206 457 208 381Q212 244 271 166T441
83Q552 80 636 134T778 278L865 788Q836 885 770 940T600 999Q448 1004 347 883T216 545L214 524Z" />
<glyph unicode="e" horiz-adv-x="1036" d="M475 -20Q345 -18 250 52T111 244T79 507L82 541Q96 691 171 826T361 1033T607 1102Q728 1100 811 1036T933 858T957 606L949 533H200L197 509Q182 400 213 301T314 143T484 82Q580 79 657 119T799 226L869 169Q796 75
696 27T475 -20ZM601 1000Q471 1005 368 908T213 635L841 634L844 649Q862 791 794 893T601 1000Z" />
<glyph unicode="f" horiz-adv-x="668" d="M129 0L300 984H126L144 1082H317L338 1229Q363 1388 459 1475T700 1560Q758 1558 831 1540L810 1441Q754 1456 703 1456Q603 1456 538 1391T455 1210L436 1082H687L669 984H420L249 0H129Z" />
<glyph unicode="g" horiz-adv-x="1112" d="M585 1103Q682 1100 762 1057T888 926L925 1082H1036L854 19Q835 -117 768 -221T597 -380T364 -432Q262 -430 169 -381Q75 -331 18 -242L92 -172Q195 -327 361 -331Q509 -335 608 -242T734 13L760 139Q616 -26 413 -20Q261
-16 177 96T88 403Q82 582 148 757T327 1019T585 1103ZM213 523L207 430Q204 266 264 177T441 83Q541 79 628 130T778 281L863 786Q836 883 770 939T599 999Q446 1004 346 881T213 523Z" />
<glyph unicode="h" horiz-adv-x="1100" d="M313 899Q469 1106 681 1102Q837 1098 908 993T958 704L840 0H722L840 706Q846 763 842 816Q825 994 648 999Q543 1001 452 937T292 742L164 0H46L313 1536H431L313 899Z" />
<glyph unicode="i" horiz-adv-x="455" d="M179 0H59L248 1082H367L179 0ZM281 1395Q286 1460 367 1477Q406 1470 422 1453T444 1395Q434 1357 415 1340T358 1314Q277 1326 281 1395Z" />
<glyph unicode="j" horiz-adv-x="463" d="M362 1082L156 -129Q136 -280 51 -362T-167 -440Q-210 -439 -276 -419L-262 -320Q-207 -335 -174 -335Q1 -339 38 -124L244 1082H362ZM278 1395Q280 1428 303 1452T362 1477T419 1454T439 1395Q436 1361 412 1338T353
1314Q318 1313 297 1336T278 1395Z" />
<glyph unicode="k" horiz-adv-x="983" d="M396 543L236 408L165 0H46L313 1536H432L262 562L386 676L857 1082H1016L484 621L857 0H725L396 543Z" />
<glyph unicode="l" horiz-adv-x="455" d="M179 0H59L326 1536H446L179 0Z" />
<glyph unicode="m" horiz-adv-x="1771" d="M343 1082L309 906Q455 1106 676 1102Q790 1100 865 1045T959 892Q1033 993 1131 1048T1346 1102Q1500 1099 1574 1001T1636 728L1634 705L1515 0H1396L1514 707Q1520 766 1515 819Q1495 996 1313 999Q1191 1001 1089
920T960 716L836 0H717L837 716Q866 992 634 999Q519 1001 420 927T287 743L159 0H40L228 1082H343Z" />
<glyph unicode="n" horiz-adv-x="1101" d="M348 1082L312 897Q384 997 478 1050T681 1102Q837 1098 908 993T958 704L840 0H722L840 706Q846 763 842 816Q825 994 648 999Q543 1001 452 937T292 742L164 0H46L234 1082H348Z" />
<glyph unicode="o" horiz-adv-x="1123" d="M75 551Q93 708 171 838T365 1037T618 1102Q752 1100 846 1029T984 834T1014 560L1012 541Q982 285 831 130T467 -20Q285 -17 176 114T69 460L72 517L75 551ZM191 517Q178 398 208 298T306 140T473 80Q581 78 670 135T818
296T893 526L896 559Q914 752 837 874T612 1000Q452 1005 336 877T193 535L191 517Z" />
<glyph unicode="p" horiz-adv-x="1111" d="M500 -21Q407 -19 325 18T191 136L91 -416H-27L233 1082H343L315 929Q456 1108 668 1102Q820 1098 905 989T993 680Q994 617 987 558L983 530Q958 355 889 228T721 39T500 -21ZM868 558L874 653Q877 813 816 904T635
999Q530 1001 445 948T300 792L211 271Q243 179 312 131T479 80Q624 75 724 188T860 505L868 558Z" />
<glyph unicode="q" horiz-adv-x="1118" d="M95 545Q130 803 260 955T587 1102Q682 1100 761 1060T888 935L923 1082H1035L775 -416H656L758 134Q619 -26 415 -20Q263 -16 178 95T88 402Q86 464 93 523L95 545ZM214 524L207 430Q204 266 263 175T442 80Q541 76
626 125T775 267L866 799Q835 891 769 944T602 1000Q446 1005 345 879T216 545L214 524Z" />
<glyph unicode="r" horiz-adv-x="678" d="M707 981Q668 989 628 990Q514 990 419 921T292 744L164 0H46L234 1082H351L315 910Q374 1006 457 1056T641 1104Q676 1104 723 1090L707 981Z" />
<glyph unicode="s" d="M730 282Q746 420 562 482L390 533Q153 613 166 800Q173 935 290 1019T570 1102Q729 1100 828 1013T920 779H802Q808 876 742 937T565 1000Q451 1000 373 947T285 805Q270 676 443 624L568 588L635 565Q861 480 848 288Q840 158 736 75T466
-19L425 -20Q316 -18 228 22T93 136T52 304L171 303Q171 201 240 142T430 81Q550 81 634 135T730 282Z" />
<glyph unicode="t" horiz-adv-x="648" d="M465 1359L417 1082H634L617 984H400L280 262L278 200Q278 91 378 88Q409 87 475 95L470 -3Q411 -20 350 -18Q245 -16 197 55T162 263L281 984H87L105 1082H297L346 1359H465Z" />
<glyph unicode="u" horiz-adv-x="1101" d="M764 136Q635 -26 408 -20Q255 -17 180 90T126 389L242 1082H360L245 386Q239 332 244 279Q251 187 299 137T431 84Q551 79 653 139T785 298L919 1082H1039L851 0H735L764 136Z" />
<glyph unicode="v" horiz-adv-x="965" d="M408 169L870 1082H996L435 0H338L113 1082H231L408 169Z" />
<glyph unicode="w" horiz-adv-x="1508" d="M342 249V164L381 257L776 1082H878L985 255L991 153L1032 256L1390 1082H1517L1023 0H921L802 858L801 918L778 857L364 0H262L147 1082L259 1083L342 249Z" />
<glyph unicode="x" horiz-adv-x="976" d="M484 645L835 1082H983L539 545L822 0H690L464 456L94 0H-52L410 557L139 1082H271L484 645Z" />
<glyph unicode="y" horiz-adv-x="954" d="M408 176L871 1082H1004L344 -174Q271 -320 190 -381T8 -440Q-30 -438 -88 -424L-76 -326L-16 -333Q152 -340 249 -135L325 16L116 1082H241L408 176Z" />
<glyph unicode="z" horiz-adv-x="976" d="M147 101H825L807 0H-21L-5 94L781 979H168L186 1082H953L936 987L147 101Z" />
<glyph unicode="{" horiz-adv-x="666" d="M476 -402Q326 -351 257 -232T206 58L237 285Q243 338 237 384Q217 531 58 542L70 645Q300 654 338 899L372 1146Q426 1495 770 1599L788 1519Q532 1432 489 1125L455 884Q419 673 228 591Q345 527 357 374Q360 329 356
284L325 57Q317 -5 322 -63Q335 -257 506 -323L476 -402Z" />
<glyph unicode="|" horiz-adv-x="448" d="M136 -270H35L305 1456H406L136 -270Z" />
<glyph unicode="}" horiz-adv-x="666" d="M-136 -325Q124 -236 166 71L198 304Q234 519 434 598Q374 626 339 681T297 813Q293 858 298 904L328 1133Q335 1194 332 1253Q327 1349 282 1417T153 1518L185 1595Q331 1543 399 1425T447 1132L417 903Q411 850 417
805Q437 657 595 649L584 545Q348 535 313 275L282 44Q228 -303 -116 -406L-136 -325Z" />
<glyph unicode="~" horiz-adv-x="1370" d="M1240 764Q1221 609 1132 514T914 422Q795 425 681 527L591 613Q515 681 439 681Q263 684 222 451L118 449Q137 606 225 698T444 789Q560 786 672 689L767 599Q842 530 920 528Q1003 526 1061 586T1141 763L1240 764Z" />
<glyph unicode="&#xa0;" horiz-adv-x="493" />
<glyph unicode="&#xa1;" horiz-adv-x="448" d="M183 690H294L118 -359H-5L183 690ZM370 1022Q368 989 344 966T285 941Q250 940 228 963T208 1022Q211 1056 235 1079T294 1103Q329 1104 351 1081T370 1022Z" />
<glyph unicode="&#xa2;" horiz-adv-x="1092" d="M484 80Q604 76 694 145T817 333H930Q902 189 793 95T524 -18L481 -245H361L405 -14Q308 4 247 57Q130 159 112 344Q94 521 145 694T314 973T591 1099L633 1318H753L710 1097Q851 1072 926 969T996 716L883 717Q887
841 821 918T639 1000Q470 1005 360 872T227 499L224 419Q224 261 290 173T484 80Z" />
<glyph unicode="&#xa3;" horiz-adv-x="1145" d="M401 645L364 376Q340 200 252 102L977 104L959 0H-11L7 103L99 102Q212 144 242 367L279 645H97L115 749H294L331 1031Q358 1238 484 1359T791 1477Q955 1473 1045 1366T1119 1088H997Q1010 1211 953 1289T776
1372Q650 1375 563 1283T453 1025L416 749H750L732 645H401Z" />
<glyph unicode="&#xa4;" horiz-adv-x="1447" d="M1023 131Q831 -24 620 -20Q519 -18 427 20T265 132L85 -26L12 66L195 222Q114 401 141 601Q172 829 338 1010L205 1183L298 1265L429 1096Q619 1238 819 1234Q916 1232 1005 1197T1164 1092L1361 1265L1435 1171L1238
1001Q1324 815 1296 614Q1269 399 1111 222L1241 54L1147 -28L1023 131ZM252 599Q240 507 259 417T326 256T450 138T627 89Q760 85 882 156T1085 352T1185 616Q1202 744 1159 862T1024 1050T811 1123Q681 1127 561 1060T356 868T252 599Z" />
<glyph unicode="&#xa5;" horiz-adv-x="1196" d="M609 736L1141 1456H1290L720 705H1073L1057 616H652L616 412H1022L1006 324H601L544 0H422L479 324H77L93 412H494L530 616H127L143 705H502L194 1456H327L609 736Z" />
<glyph unicode="&#xa6;" horiz-adv-x="441" d="M2 -270L136 501H256L121 -270H2ZM289 698H170L302 1456H421L289 698Z" />
<glyph unicode="&#xa7;" horiz-adv-x="1212" d="M1066 439Q1049 240 793 155Q940 55 924 -131Q915 -245 848 -327T665 -454T418 -495Q210 -493 93 -378T-7 -64L112 -62Q97 -210 181 -300T423 -393Q571 -398 679 -327T803 -134Q813 -46 761 15T584 120L422 173L342
204Q84 313 104 543Q121 742 368 829Q228 930 245 1112Q254 1224 323 1307T506 1435T753 1476Q954 1472 1061 1355T1149 1045H1031Q1045 1190 968 1280T748 1374Q589 1376 485 1307T366 1115Q344 948 542 871L777 791Q936 734 1006 650T1066 439ZM615 729L483 772Q249
733 224 546Q211 453 267 388T488 271T668 213Q790 231 861 288T945 435Q957 526 896 592T679 709L615 729Z" />
<glyph unicode="&#xa8;" horiz-adv-x="865" d="M262 1396Q264 1430 288 1453T347 1478Q382 1478 404 1455T424 1396Q422 1363 397 1340T339 1316Q304 1316 282 1338T262 1396ZM686 1395Q688 1429 714 1453T771 1477Q806 1478 828 1454T848 1395Q846 1361 821 1339T763
1315Q729 1315 707 1337T686 1395Z" />
<glyph unicode="&#xa9;" horiz-adv-x="1598" d="M1101 607Q1082 455 992 372T762 292Q620 296 546 406T485 680L493 758Q513 946 615 1056T868 1164Q1005 1160 1076 1077T1137 850H1039Q1057 1071 864 1075Q758 1077 685 995T595 777L585 679Q572 550 620 468T766
382Q964 375 1006 606L1101 607ZM219 562Q241 345 379 206T717 65Q912 61 1085 178T1355 494T1430 896Q1414 1038 1346 1150T1171 1324T932 1389Q788 1392 653 1328T411 1141T254 864T219 562ZM135 722Q157 919 270 1096T560 1377T933 1476Q1112 1474 1254 1376T1466
1102T1513 735Q1488 529 1371 351T1079 74T716 -21Q532 -17 392 81T182 356T135 722Z" />
<glyph unicode="&#xaa;" horiz-adv-x="889" d="M657 703Q651 751 654 798Q555 690 427 690Q324 690 264 749T209 900Q214 1014 307 1077T560 1141L697 1140L706 1202Q710 1237 706 1269Q692 1377 583 1380Q507 1382 452 1348T377 1238L273 1244Q288 1353 375 1416T589
1477Q706 1473 766 1398T816 1200L767 886Q752 793 762 704L657 703ZM450 784Q563 784 658 889L688 1058L562 1059Q455 1059 391 1019T319 905Q314 846 349 815T450 784Z" />
<glyph unicode="&#xab;" horiz-adv-x="915" d="M228 786L426 404H331L106 782L108 801L456 1181H570L228 786ZM528 530L726 148H631L406 526L408 545L756 925H870L528 530Z" />
<glyph unicode="&#xac;" horiz-adv-x="1093" d="M872 386H753L803 670H131L150 776H940L872 386Z" />
<glyph unicode="&#xad;" horiz-adv-x="578" d="M512 592H45L63 693H530L512 592Z" />
<glyph unicode="&#xae;" horiz-adv-x="1603" d="M130 722Q155 929 270 1104T559 1379T928 1476Q1105 1474 1247 1377T1461 1103T1510 735Q1492 584 1421 443T1238 195T990 32T711 -21Q527 -17 387 81T177 356T130 722ZM214 562Q236 346 374 207T712 65Q855 62
989 125T1231 312T1389 589T1425 896Q1411 1034 1344 1147T1168 1323T927 1389Q784 1392 648 1328T407 1143T250 869T214 562ZM655 666L600 321H502L634 1160L878 1159Q1011 1154 1079 1093T1141 919Q1131 787 975 711Q1058 669 1067 571L1066 509Q1056 433 1057
400L1059 337L1057 321H959Q954 357 956 393L962 465L967 509Q974 584 947 622T842 665L655 666ZM668 757L839 756Q921 758 979 800T1047 917Q1067 1068 877 1069L718 1070L668 757Z" />
<glyph unicode="&#xaf;" horiz-adv-x="858" d="M873 1359H220L236 1456H888L873 1359Z" />
<glyph unicode="&#xb0;" horiz-adv-x="761" d="M249 1217Q253 1323 331 1401T511 1477Q603 1475 664 1404T722 1235Q718 1129 642 1053T464 979Q368 981 307 1052T249 1217ZM339 1219Q333 1157 370 1114T466 1070Q533 1070 580 1117T633 1233Q639 1294 605 1340T508
1386Q444 1386 395 1339T339 1219Z" />
<glyph unicode="&#xb1;" horiz-adv-x="1062" d="M628 829H1008L991 727H612L543 289H433L502 727H100L116 829H517L586 1267H697L628 829ZM842 0H29L45 101H858L842 0Z" />
<glyph unicode="&#xb2;" horiz-adv-x="728" d="M659 665H103L117 745L488 1066Q598 1164 608 1247Q616 1311 580 1345T481 1380Q400 1381 350 1337T283 1216H180Q196 1332 280 1400T482 1467Q594 1465 658 1405T716 1248Q709 1133 560 1004L497 950L255 752H675L659 665Z" />
<glyph unicode="&#xb3;" horiz-adv-x="728" d="M345 1106H421Q510 1109 565 1149Q617 1187 623 1248Q629 1310 590 1344T485 1379Q418 1380 368 1346T299 1247L195 1246Q210 1349 291 1409T486 1467Q598 1465 666 1407T728 1251Q721 1133 559 1065Q690 1021 684
888Q679 781 592 717T380 654Q262 656 190 718T122 885H225Q222 822 265 782T385 742Q467 742 520 782T581 890Q594 1019 417 1024L336 1025L345 1106Z" />
<glyph unicode="&#xb4;" horiz-adv-x="569" d="M446 1524L596 1523L328 1246H216L446 1524Z" />
<glyph unicode="&#xb5;" horiz-adv-x="1116" d="M358 1082L253 448L247 368V321Q256 87 439 80Q561 76 657 138T784 311L916 1082H1035L847 0H739L766 154Q645 -24 441 -20Q265 -15 192 106L98 -416H-20L240 1082H358Z" />
<glyph unicode="&#xb6;" horiz-adv-x="954" d="M566 0L657 520L574 521Q362 523 250 650T159 980Q182 1195 334 1326T710 1457L938 1456L685 0H566Z" />
<glyph unicode="&#xb7;" horiz-adv-x="498" d="M178 717Q180 752 205 776T265 801Q302 801 324 777T345 717Q342 682 317 659T256 634Q220 633 198 657T178 717Z" />
<glyph unicode="&#xb8;" horiz-adv-x="493" d="M131 0L109 -66Q250 -92 244 -228Q239 -326 155 -380T-75 -437L-74 -358Q22 -355 79 -322T145 -231Q154 -152 51 -134L-4 -126L41 0H131Z" />
<glyph unicode="&#xb9;" horiz-adv-x="728" d="M463 669H358L473 1329L235 1260L252 1354L580 1459H597L463 669Z" />
<glyph unicode="&#xba;" horiz-adv-x="904" d="M585 1477Q720 1473 794 1377T855 1132L845 1033Q826 879 728 782T485 689Q350 693 276 788T213 1033L222 1121Q239 1284 340 1382T585 1477ZM323 1031Q311 920 356 853T491 784Q587 780 654 850T737 1042L748 1133Q758
1243 713 1310T579 1381Q479 1383 413 1312T333 1123L323 1031Z" />
<glyph unicode="&#xbb;" horiz-adv-x="910" d="M270 944L494 562L492 542L144 162H30L371 556L174 944H270ZM580 944L804 562L802 542L454 162H340L681 556L484 944H580Z" />
<glyph unicode="&#xbc;" horiz-adv-x="1449" d="M450 664H345L460 1324L222 1255L239 1349L567 1454H584L450 664ZM327 130L255 183L1140 1314L1208 1265L327 130ZM1179 275H1303L1287 187H1164L1131 0H1026L1060 187H675L679 252L1154 789H1269L1179 275ZM801
275H1074L1147 660L1108 609L801 275Z" />
<glyph unicode="&#xbd;" horiz-adv-x="1512" d="M284 130L212 183L1097 1314L1165 1265L284 130ZM436 664H331L446 1324L208 1255L225 1349L553 1454H570L436 664ZM1290 0H734L748 80L1119 401Q1229 499 1239 582Q1247 646 1211 680T1112 715Q1031 716 981 672T914
551H811Q827 667 911 735T1113 802Q1225 800 1289 740T1347 583Q1340 468 1191 339L1128 285L886 87H1306L1290 0Z" />
<glyph unicode="&#xbe;" horiz-adv-x="1552" d="M467 130L395 183L1280 1314L1348 1265L467 130ZM1290 275H1414L1398 187H1275L1242 0H1137L1171 187H786L790 252L1265 789H1380L1290 275ZM912 275H1185L1258 660L1219 609L912 275ZM390 1106H466Q555 1109 610
1149Q662 1187 668 1248Q674 1310 635 1344T530 1379Q463 1380 413 1346T344 1247L240 1246Q255 1349 336 1409T531 1467Q643 1465 711 1407T773 1251Q766 1133 604 1065Q735 1021 729 888Q724 781 637 717T425 654Q307 656 235 718T167 885H270Q267 822 310 782T430
742Q512 742 565 782T626 890Q639 1019 462 1024L381 1025L390 1106Z" />
<glyph unicode="&#xbf;" horiz-adv-x="922" d="M554 688Q539 580 498 507T372 359T267 265Q125 131 109 -17Q96 -136 151 -206T315 -279Q425 -283 504 -215T610 -21L727 -20Q702 -190 588 -289T307 -384Q145 -380 59 -277T-11 -18Q7 174 198 349L336 469Q415 547
439 687L554 688ZM632 1022Q630 988 604 964T547 940Q512 939 490 963T470 1022Q473 1055 498 1078T556 1102Q590 1103 612 1080T632 1022Z" />
<glyph unicode="&#xc0;" horiz-adv-x="1251" d="M909 408H271L54 0H-79L708 1456H825L1106 0H985L909 408ZM326 513H889L745 1302L326 513ZM859 1560H759L583 1839H717L859 1560Z" />
<glyph unicode="&#xc1;" horiz-adv-x="1251" d="M909 408H271L54 0H-79L708 1456H825L1106 0H985L909 408ZM326 513H889L745 1302L326 513ZM946 1839L1096 1838L828 1561H716L946 1839Z" />
<glyph unicode="&#xc2;" horiz-adv-x="1251" d="M909 408H271L54 0H-79L708 1456H825L1106 0H985L909 408ZM326 513H889L745 1302L326 513ZM1067 1584L1066 1572L958 1573L829 1754L635 1574L525 1573L526 1587L796 1841H869L1067 1584Z" />
<glyph unicode="&#xc3;" horiz-adv-x="1251" d="M909 408H271L54 0H-79L708 1456H825L1106 0H985L909 408ZM326 513H889L745 1302L326 513ZM1159 1809Q1145 1709 1089 1652T949 1594Q918 1594 893 1604T818 1649T743 1695T687 1707Q641 1707 608 1676T560 1589L471
1592Q485 1688 542 1747T683 1805Q721 1805 752 1788T815 1749T879 1709T947 1692Q1039 1692 1075 1814L1159 1809Z" />
<glyph unicode="&#xc4;" horiz-adv-x="1251" d="M909 408H271L54 0H-79L708 1456H825L1106 0H985L909 408ZM326 513H889L745 1302L326 513ZM528 1711Q530 1745 554 1768T613 1793Q648 1793 670 1770T690 1711Q688 1678 663 1655T605 1631Q570 1631 548 1653T528
1711ZM952 1710Q954 1744 980 1768T1037 1792Q1072 1793 1094 1769T1114 1710Q1112 1676 1087 1654T1029 1630Q995 1630 973 1652T952 1710Z" />
<glyph unicode="&#xc5;" horiz-adv-x="1251" d="M909 408H271L54 0H-79L708 1456H825L1106 0H985L909 408ZM326 513H889L745 1302L326 513ZM631 1707Q633 1790 692 1848T831 1906Q906 1906 957 1853T1007 1723Q1005 1643 947 1585T806 1527Q731 1527 680 1578T631
1707ZM708 1709Q704 1663 730 1631T802 1599Q850 1599 887 1633T931 1721Q935 1769 908 1801T835 1834Q788 1834 750 1797T708 1709Z" />
<glyph unicode="&#xc6;" horiz-adv-x="1819" d="M1666 0H871L922 389H350L59 0H-93L1015 1456H1859L1841 1354H1168L1096 809H1668L1650 707H1082L1002 101H1684L1666 0ZM434 502H938L1047 1320L434 502Z" />
<glyph unicode="&#xc7;" horiz-adv-x="1300" d="M1150 454Q1099 229 943 102T562 -20Q367 -16 252 118T127 481Q124 559 134 636L161 812Q192 1013 285 1168T513 1401T808 1476Q1016 1472 1133 1344T1248 999L1127 1000Q1127 1175 1043 1271T802 1372Q604 1377
465 1225T283 803L253 603L249 513Q247 395 283 294T393 140T568 84Q742 78 859 171T1031 453L1150 454ZM597 -9L575 -75Q716 -101 710 -237Q705 -335 621 -389T391 -446L392 -367Q488 -364 545 -331T611 -240Q620 -161 517 -143L462 -135L507 -9H597Z" />
<glyph unicode="&#xc8;" horiz-adv-x="1140" d="M977 698H317L213 104H973L955 0H73L326 1456H1203L1184 1351H430L334 802H995L977 698ZM837 1566H737L561 1845H695L837 1566Z" />
<glyph unicode="&#xc9;" horiz-adv-x="1140" d="M977 698H317L213 104H973L955 0H73L326 1456H1203L1184 1351H430L334 802H995L977 698ZM924 1845L1074 1844L806 1567H694L924 1845Z" />
<glyph unicode="&#xca;" horiz-adv-x="1140" d="M977 698H317L213 104H973L955 0H73L326 1456H1203L1184 1351H430L334 802H995L977 698ZM1045 1590L1044 1578L936 1579L807 1760L613 1580L503 1579L504 1593L774 1847H847L1045 1590Z" />
<glyph unicode="&#xcb;" horiz-adv-x="1140" d="M977 698H317L213 104H973L955 0H73L326 1456H1203L1184 1351H430L334 802H995L977 698ZM506 1717Q508 1751 532 1774T591 1799Q626 1799 648 1776T668 1717Q666 1684 641 1661T583 1637Q548 1637 526 1659T506
1717ZM930 1716Q932 1750 958 1774T1015 1798Q1050 1799 1072 1775T1092 1716Q1090 1682 1065 1660T1007 1636Q973 1636 951 1658T930 1716Z" />
<glyph unicode="&#xcc;" horiz-adv-x="539" d="M221 0H99L352 1456H474L221 0ZM503 1566H403L227 1845H361L503 1566Z" />
<glyph unicode="&#xcd;" horiz-adv-x="539" d="M221 0H99L352 1456H474L221 0ZM589 1845L739 1844L471 1567H359L589 1845Z" />
<glyph unicode="&#xce;" horiz-adv-x="539" d="M221 0H99L352 1456H474L221 0ZM711 1590L710 1578L602 1579L473 1760L279 1580L169 1579L170 1593L440 1847H513L711 1590Z" />
<glyph unicode="&#xcf;" horiz-adv-x="539" d="M221 0H99L352 1456H474L221 0ZM172 1717Q174 1751 198 1774T257 1799Q292 1799 314 1776T334 1717Q332 1684 307 1661T249 1637Q214 1637 192 1659T172 1717ZM596 1716Q598 1750 624 1774T681 1798Q716 1799 738
1775T758 1716Q756 1682 731 1660T673 1636Q639 1636 617 1658T596 1716Z" />
<glyph unicode="&#xd0;" horiz-adv-x="1341" d="M103 0L222 689H47L65 791H240L356 1456L735 1455Q904 1455 1028 1369T1207 1130T1240 794L1222 673Q1176 370 980 185T499 0H103ZM643 689H345L243 104L503 103Q656 103 782 173T990 370T1098 658T1125 880T1119
998Q1096 1158 997 1252T741 1350L460 1351L362 791H661L643 689Z" />
<glyph unicode="&#xd1;" horiz-adv-x="1420" d="M1128 0H1010L413 1248L196 0H73L326 1456H444L1042 207L1259 1456H1380L1128 0ZM1240 1809Q1226 1709 1170 1652T1030 1594Q999 1594 974 1604T899 1649T824 1695T768 1707Q722 1707 689 1676T641 1589L552 1592Q566
1688 623 1747T764 1805Q802 1805 833 1788T896 1749T960 1709T1028 1692Q1120 1692 1156 1814L1240 1809Z" />
<glyph unicode="&#xd2;" horiz-adv-x="1354" d="M577 -20Q373 -16 254 121T124 489Q120 569 131 648L151 786Q196 1091 371 1284Q550 1481 813 1476Q947 1473 1047 1411T1204 1229T1265 966Q1268 880 1256 798L1233 644Q1198 438 1104 284T874 54T577 -20ZM1136
809Q1144 872 1145 937Q1145 1059 1107 1159T993 1312T807 1369Q607 1374 466 1226T280 824Q244 619 245 521Q245 319 333 205T583 87Q796 82 935 241T1114 661L1136 809ZM908 1572H808L632 1851H766L908 1572Z" />
<glyph unicode="&#xd3;" horiz-adv-x="1354" d="M577 -20Q373 -16 254 121T124 489Q120 569 131 648L151 786Q196 1091 371 1284Q550 1481 813 1476Q947 1473 1047 1411T1204 1229T1265 966Q1268 880 1256 798L1233 644Q1198 438 1104 284T874 54T577 -20ZM1136
809Q1144 872 1145 937Q1145 1059 1107 1159T993 1312T807 1369Q607 1374 466 1226T280 824Q244 619 245 521Q245 319 333 205T583 87Q796 82 935 241T1114 661L1136 809ZM995 1851L1145 1850L877 1573H765L995 1851Z" />
<glyph unicode="&#xd4;" horiz-adv-x="1354" d="M577 -20Q373 -16 254 121T124 489Q120 569 131 648L151 786Q196 1091 371 1284Q550 1481 813 1476Q947 1473 1047 1411T1204 1229T1265 966Q1268 880 1256 798L1233 644Q1198 438 1104 284T874 54T577 -20ZM1136
809Q1144 872 1145 937Q1145 1059 1107 1159T993 1312T807 1369Q607 1374 466 1226T280 824Q244 619 245 521Q245 319 333 205T583 87Q796 82 935 241T1114 661L1136 809ZM1116 1596L1115 1584L1007 1585L878 1766L684 1586L574 1585L575 1599L845 1853H918L1116
1596Z" />
<glyph unicode="&#xd5;" horiz-adv-x="1354" d="M577 -20Q373 -16 254 121T124 489Q120 569 131 648L151 786Q196 1091 371 1284Q550 1481 813 1476Q947 1473 1047 1411T1204 1229T1265 966Q1268 880 1256 798L1233 644Q1198 438 1104 284T874 54T577 -20ZM1136
809Q1144 872 1145 937Q1145 1059 1107 1159T993 1312T807 1369Q607 1374 466 1226T280 824Q244 619 245 521Q245 319 333 205T583 87Q796 82 935 241T1114 661L1136 809ZM1208 1821Q1194 1721 1138 1664T998 1606Q967 1606 942 1616T867 1661T792 1707T736 1719Q690
1719 657 1688T609 1601L520 1604Q534 1700 591 1759T732 1817Q770 1817 801 1800T864 1761T928 1721T996 1704Q1088 1704 1124 1826L1208 1821Z" />
<glyph unicode="&#xd6;" horiz-adv-x="1354" d="M577 -20Q373 -16 254 121T124 489Q120 569 131 648L151 786Q196 1091 371 1284Q550 1481 813 1476Q947 1473 1047 1411T1204 1229T1265 966Q1268 880 1256 798L1233 644Q1198 438 1104 284T874 54T577 -20ZM1136
809Q1144 872 1145 937Q1145 1059 1107 1159T993 1312T807 1369Q607 1374 466 1226T280 824Q244 619 245 521Q245 319 333 205T583 87Q796 82 935 241T1114 661L1136 809ZM577 1723Q579 1757 603 1780T662 1805Q697 1805 719 1782T739 1723Q737 1690 712 1667T654
1643Q619 1643 597 1665T577 1723ZM1001 1722Q1003 1756 1029 1780T1086 1804Q1121 1805 1143 1781T1163 1722Q1161 1688 1136 1666T1078 1642Q1044 1642 1022 1664T1001 1722Z" />
<glyph unicode="&#xd7;" horiz-adv-x="1050" d="M17 184L428 550L155 900L242 975L512 625L906 974L974 888L580 539L865 173L779 99L495 463L85 100L17 184Z" />
<glyph unicode="&#xd8;" horiz-adv-x="1354" d="M575 -21Q397 -17 281 77L153 -82H41L218 136Q117 292 120 516Q121 613 157 823T301 1195T567 1427Q683 1479 813 1476Q909 1474 998 1441T1153 1336L1288 1504H1399L1207 1267Q1255 1158 1265 1040Q1275 921 1258
806L1236 663Q1203 449 1108 292T877 56T582 -21H575ZM241 544Q231 361 291 235L1081 1240Q988 1366 808 1370Q601 1375 459 1219T275 795L247 614L241 544ZM1151 986Q1151 1074 1127 1160L349 168Q437 91 582 86Q714 83 823 147T1009 343T1115 668T1147 901T1151
986Z" />
<glyph unicode="&#xd9;" horiz-adv-x="1316" d="M1306 1456L1137 471Q1101 241 944 108T562 -21Q421 -18 319 44T170 218T140 469L309 1456H430L262 468Q241 299 324 195T568 84Q736 78 857 177T1011 452L1183 1456H1306ZM897 1560H797L621 1839H755L897 1560Z" />
<glyph unicode="&#xda;" horiz-adv-x="1316" d="M1306 1456L1137 471Q1101 241 944 108T562 -21Q421 -18 319 44T170 218T140 469L309 1456H430L262 468Q241 299 324 195T568 84Q736 78 857 177T1011 452L1183 1456H1306ZM984 1839L1134 1838L866 1561H754L984 1839Z" />
<glyph unicode="&#xdb;" horiz-adv-x="1316" d="M1306 1456L1137 471Q1101 241 944 108T562 -21Q421 -18 319 44T170 218T140 469L309 1456H430L262 468Q241 299 324 195T568 84Q736 78 857 177T1011 452L1183 1456H1306ZM1105 1584L1104 1572L996 1573L867 1754L673
1574L563 1573L564 1587L834 1841H907L1105 1584Z" />
<glyph unicode="&#xdc;" horiz-adv-x="1316" d="M1306 1456L1137 471Q1101 241 944 108T562 -21Q421 -18 319 44T170 218T140 469L309 1456H430L262 468Q241 299 324 195T568 84Q736 78 857 177T1011 452L1183 1456H1306ZM566 1711Q568 1745 592 1768T651 1793Q686
1793 708 1770T728 1711Q726 1678 701 1655T643 1631Q608 1631 586 1653T566 1711ZM990 1710Q992 1744 1018 1768T1075 1792Q1110 1793 1132 1769T1152 1710Q1150 1676 1125 1654T1067 1630Q1033 1630 1011 1652T990 1710Z" />
<glyph unicode="&#xdd;" horiz-adv-x="1199" d="M600 664L1168 1456H1316L643 542L549 0H427L524 555L174 1456H311L600 664ZM915 1833L1065 1832L797 1555H685L915 1833Z" />
<glyph unicode="&#xde;" horiz-adv-x="1188" d="M444 1456L391 1152L696 1151Q819 1148 913 1097T1053 954T1088 745Q1076 617 1007 522T822 375T568 323L248 324L191 0H72L325 1456H444ZM374 1051L265 425L572 424Q729 424 840 512T968 744Q984 878 908 962T694
1050L374 1051Z" />
<glyph unicode="&#xdf;" horiz-adv-x="1174" d="M160 0H41L234 1127Q262 1327 371 1438T645 1544Q785 1540 866 1457T936 1246Q932 1199 917 1157T846 1023T776 894T756 814Q748 756 776 702T879 574T985 440T1013 316Q1004 167 885 71T603 -21Q523 -21 442 0T308
62L354 161Q459 81 593 79Q710 77 796 143T896 315Q903 375 874 430T771 558T664 690T638 816Q643 865 661 908T726 1029T792 1148T817 1240Q827 1323 780 1381T647 1444Q529 1449 452 1367T352 1128L160 0Z" />
<glyph unicode="&#xe0;" horiz-adv-x="1074" d="M719 0Q714 38 716 76L725 151Q650 70 554 24T345 -20Q208 -18 123 66T46 279Q54 386 119 464T306 586T577 630L798 629L816 753Q828 864 768 931T591 1002Q473 1004 386 944T276 784H159Q179 926 305 1015T603
1103Q770 1099 860 1002T934 750L844 206L836 119Q833 65 844 12L842 0H719ZM365 85Q475 81 575 137T742 298L783 537L592 538Q410 538 295 474T168 289Q159 201 214 144T365 85ZM743 1245H643L467 1524H601L743 1245Z" />
<glyph unicode="&#xe1;" horiz-adv-x="1074" d="M719 0Q714 38 716 76L725 151Q650 70 554 24T345 -20Q208 -18 123 66T46 279Q54 386 119 464T306 586T577 630L798 629L816 753Q828 864 768 931T591 1002Q473 1004 386 944T276 784H159Q179 926 305 1015T603
1103Q770 1099 860 1002T934 750L844 206L836 119Q833 65 844 12L842 0H719ZM365 85Q475 81 575 137T742 298L783 537L592 538Q410 538 295 474T168 289Q159 201 214 144T365 85ZM830 1524L980 1523L712 1246H600L830 1524Z" />
<glyph unicode="&#xe2;" horiz-adv-x="1074" d="M719 0Q714 38 716 76L725 151Q650 70 554 24T345 -20Q208 -18 123 66T46 279Q54 386 119 464T306 586T577 630L798 629L816 753Q828 864 768 931T591 1002Q473 1004 386 944T276 784H159Q179 926 305 1015T603
1103Q770 1099 860 1002T934 750L844 206L836 119Q833 65 844 12L842 0H719ZM365 85Q475 81 575 137T742 298L783 537L592 538Q410 538 295 474T168 289Q159 201 214 144T365 85ZM951 1269L950 1257L842 1258L713 1439L519 1259L409 1258L410 1272L680 1526H753L951
1269Z" />
<glyph unicode="&#xe3;" horiz-adv-x="1074" d="M719 0Q714 38 716 76L725 151Q650 70 554 24T345 -20Q208 -18 123 66T46 279Q54 386 119 464T306 586T577 630L798 629L816 753Q828 864 768 931T591 1002Q473 1004 386 944T276 784H159Q179 926 305 1015T603
1103Q770 1099 860 1002T934 750L844 206L836 119Q833 65 844 12L842 0H719ZM365 85Q475 81 575 137T742 298L783 537L592 538Q410 538 295 474T168 289Q159 201 214 144T365 85ZM1043 1494Q1029 1394 973 1337T833 1279Q802 1279 777 1289T702 1334T627 1380T571
1392Q525 1392 492 1361T444 1274L355 1277Q369 1373 426 1432T567 1490Q605 1490 636 1473T699 1434T763 1394T831 1377Q923 1377 959 1499L1043 1494Z" />
<glyph unicode="&#xe4;" horiz-adv-x="1074" d="M719 0Q714 38 716 76L725 151Q650 70 554 24T345 -20Q208 -18 123 66T46 279Q54 386 119 464T306 586T577 630L798 629L816 753Q828 864 768 931T591 1002Q473 1004 386 944T276 784H159Q179 926 305 1015T603
1103Q770 1099 860 1002T934 750L844 206L836 119Q833 65 844 12L842 0H719ZM365 85Q475 81 575 137T742 298L783 537L592 538Q410 538 295 474T168 289Q159 201 214 144T365 85ZM412 1396Q414 1430 438 1453T497 1478Q532 1478 554 1455T574 1396Q572 1363 547
1340T489 1316Q454 1316 432 1338T412 1396ZM836 1395Q838 1429 864 1453T921 1477Q956 1478 978 1454T998 1395Q996 1361 971 1339T913 1315Q879 1315 857 1337T836 1395Z" />
<glyph unicode="&#xe5;" horiz-adv-x="1074" d="M719 0Q714 38 716 76L725 151Q650 70 554 24T345 -20Q208 -18 123 66T46 279Q54 386 119 464T306 586T577 630L798 629L816 753Q828 864 768 931T591 1002Q473 1004 386 944T276 784H159Q179 926 305 1015T603
1103Q770 1099 860 1002T934 750L844 206L836 119Q833 65 844 12L842 0H719ZM365 85Q475 81 575 137T742 298L783 537L592 538Q410 538 295 474T168 289Q159 201 214 144T365 85ZM515 1392Q517 1475 576 1533T715 1591Q790 1591 841 1538T891 1408Q889 1328 831
1270T690 1212Q615 1212 564 1263T515 1392ZM592 1394Q588 1348 614 1316T686 1284Q734 1284 771 1318T815 1406Q819 1454 792 1486T719 1519Q672 1519 634 1482T592 1394Z" />
<glyph unicode="&#xe6;" horiz-adv-x="1690" d="M1134 -19Q1012 -17 918 37T781 186Q700 80 584 29T336 -20Q188 -18 106 65T33 285Q45 449 174 541T510 633L765 632L777 721Q791 851 741 924T583 1001Q460 1003 372 941T260 766L145 778Q165 927 289 1017T591
1102Q710 1100 789 1043T890 890Q1055 1106 1277 1102Q1458 1098 1550 970T1618 638L1603 538H871L866 508Q855 431 863 356Q875 232 947 159T1139 82Q1308 78 1470 199L1509 110Q1358 -23 1134 -19ZM358 80Q445 78 535 119T697 235L750 536L510 537Q366 537 266
467T153 281Q144 186 201 133T358 80ZM1269 1001Q1141 1004 1042 913T884 636H1499Q1513 729 1504 791Q1489 888 1428 943T1269 1001Z" />
<glyph unicode="&#xe7;" horiz-adv-x="1033" d="M465 80Q583 76 673 145T794 333H907Q877 172 750 74T459 -21Q328 -18 239 51T111 242T85 517L89 560Q101 665 140 764T246 939T403 1060T610 1102Q776 1098 874 990T966 716L853 717Q855 842 788 919T605 1000Q481
1004 386 928T243 713T198 418Q201 257 270 171T465 80ZM473 -9L451 -75Q592 -101 586 -237Q581 -335 497 -389T267 -446L268 -367Q364 -364 421 -331T487 -240Q496 -161 393 -143L338 -135L383 -9H473Z" />
<glyph unicode="&#xe8;" horiz-adv-x="1036" d="M475 -20Q345 -18 250 52T111 244T79 507L82 541Q96 691 171 826T361 1033T607 1102Q728 1100 811 1036T933 858T957 606L949 533H200L197 509Q182 400 213 301T314 143T484 82Q580 79 657 119T799 226L869 169Q796
75 696 27T475 -20ZM601 1000Q471 1005 368 908T213 635L841 634L844 649Q862 791 794 893T601 1000ZM719 1245H619L443 1524H577L719 1245Z" />
<glyph unicode="&#xe9;" horiz-adv-x="1036" d="M475 -20Q345 -18 250 52T111 244T79 507L82 541Q96 691 171 826T361 1033T607 1102Q728 1100 811 1036T933 858T957 606L949 533H200L197 509Q182 400 213 301T314 143T484 82Q580 79 657 119T799 226L869 169Q796
75 696 27T475 -20ZM601 1000Q471 1005 368 908T213 635L841 634L844 649Q862 791 794 893T601 1000ZM806 1524L956 1523L688 1246H576L806 1524Z" />
<glyph unicode="&#xea;" horiz-adv-x="1036" d="M475 -20Q345 -18 250 52T111 244T79 507L82 541Q96 691 171 826T361 1033T607 1102Q728 1100 811 1036T933 858T957 606L949 533H200L197 509Q182 400 213 301T314 143T484 82Q580 79 657 119T799 226L869 169Q796
75 696 27T475 -20ZM601 1000Q471 1005 368 908T213 635L841 634L844 649Q862 791 794 893T601 1000ZM927 1269L926 1257L818 1258L689 1439L495 1259L385 1258L386 1272L656 1526H729L927 1269Z" />
<glyph unicode="&#xeb;" horiz-adv-x="1036" d="M475 -20Q345 -18 250 52T111 244T79 507L82 541Q96 691 171 826T361 1033T607 1102Q728 1100 811 1036T933 858T957 606L949 533H200L197 509Q182 400 213 301T314 143T484 82Q580 79 657 119T799 226L869 169Q796
75 696 27T475 -20ZM601 1000Q471 1005 368 908T213 635L841 634L844 649Q862 791 794 893T601 1000ZM388 1396Q390 1430 414 1453T473 1478Q508 1478 530 1455T550 1396Q548 1363 523 1340T465 1316Q430 1316 408 1338T388 1396ZM812 1395Q814 1429 840 1453T897
1477Q932 1478 954 1454T974 1395Q972 1361 947 1339T889 1315Q855 1315 833 1337T812 1395Z" />
<glyph unicode="&#xec;" horiz-adv-x="452" d="M177 0H57L246 1082H365L177 0ZM659 1489H559L383 1768H517L659 1489Z" />
<glyph unicode="&#xed;" horiz-adv-x="452" d="M177 0H57L246 1082H365L177 0ZM489 1768L639 1767L371 1490H259L489 1768Z" />
<glyph unicode="&#xee;" horiz-adv-x="452" d="M177 0H57L246 1082H365L177 0ZM611 1257L610 1245L502 1246L373 1427L179 1247L69 1246L70 1260L340 1514H413L611 1257Z" />
<glyph unicode="&#xef;" horiz-adv-x="452" d="M177 0H57L246 1082H365L177 0ZM72 1384Q74 1418 98 1441T157 1466Q192 1466 214 1443T234 1384Q232 1351 207 1328T149 1304Q114 1304 92 1326T72 1384ZM496 1383Q498 1417 524 1441T581 1465Q616 1466 638 1442T658
1383Q656 1349 631 1327T573 1303Q539 1303 517 1325T496 1383Z" />
<glyph unicode="&#xf0;" horiz-adv-x="1165" d="M912 1301Q1049 1085 1045 800Q1042 681 1018 527T925 249T759 56Q645 -25 506 -21Q383 -17 292 46T157 220T125 458Q139 604 206 721T383 904T625 966Q713 964 793 928T927 821Q931 1059 807 1239L563 1100L523
1179L744 1304Q634 1408 441 1476L490 1577Q708 1504 852 1367L1063 1488L1103 1409L912 1301ZM916 686Q884 770 811 815T639 862Q481 866 374 755T245 458Q227 304 302 195T516 82Q666 77 769 207T901 558L910 626L916 686Z" />
<glyph unicode="&#xf1;" horiz-adv-x="1101" d="M348 1082L312 897Q384 997 478 1050T681 1102Q837 1098 908 993T958 704L840 0H722L840 706Q846 763 842 816Q825 994 648 999Q543 1001 452 937T292 742L164 0H46L234 1082H348ZM1039 1493Q1025 1393 969 1336T829
1278Q798 1278 773 1288T698 1333T623 1379T567 1391Q521 1391 488 1360T440 1273L351 1276Q365 1372 422 1431T563 1489Q601 1489 632 1472T695 1433T759 1393T827 1376Q919 1376 955 1498L1039 1493Z" />
<glyph unicode="&#xf2;" horiz-adv-x="1123" d="M75 551Q93 708 171 838T365 1037T618 1102Q752 1100 846 1029T984 834T1014 560L1012 541Q982 285 831 130T467 -20Q285 -17 176 114T69 460L72 517L75 551ZM191 517Q178 398 208 298T306 140T473 80Q581 78 670
135T818 296T893 526L896 559Q914 752 837 874T612 1000Q452 1005 336 877T193 535L191 517ZM723 1245H623L447 1524H581L723 1245Z" />
<glyph unicode="&#xf3;" horiz-adv-x="1123" d="M75 551Q93 708 171 838T365 1037T618 1102Q752 1100 846 1029T984 834T1014 560L1012 541Q982 285 831 130T467 -20Q285 -17 176 114T69 460L72 517L75 551ZM191 517Q178 398 208 298T306 140T473 80Q581 78 670
135T818 296T893 526L896 559Q914 752 837 874T612 1000Q452 1005 336 877T193 535L191 517ZM810 1524L960 1523L692 1246H580L810 1524Z" />
<glyph unicode="&#xf4;" horiz-adv-x="1123" d="M75 551Q93 708 171 838T365 1037T618 1102Q752 1100 846 1029T984 834T1014 560L1012 541Q982 285 831 130T467 -20Q285 -17 176 114T69 460L72 517L75 551ZM191 517Q178 398 208 298T306 140T473 80Q581 78 670
135T818 296T893 526L896 559Q914 752 837 874T612 1000Q452 1005 336 877T193 535L191 517ZM931 1269L930 1257L822 1258L693 1439L499 1259L389 1258L390 1272L660 1526H733L931 1269Z" />
<glyph unicode="&#xf5;" horiz-adv-x="1123" d="M75 551Q93 708 171 838T365 1037T618 1102Q752 1100 846 1029T984 834T1014 560L1012 541Q982 285 831 130T467 -20Q285 -17 176 114T69 460L72 517L75 551ZM191 517Q178 398 208 298T306 140T473 80Q581 78 670
135T818 296T893 526L896 559Q914 752 837 874T612 1000Q452 1005 336 877T193 535L191 517ZM1023 1493Q1009 1393 953 1336T813 1278Q782 1278 757 1288T682 1333T607 1379T551 1391Q505 1391 472 1360T424 1273L335 1276Q349 1372 406 1431T547 1489Q585 1489
616 1472T679 1433T743 1393T811 1376Q903 1376 939 1498L1023 1493Z" />
<glyph unicode="&#xf6;" horiz-adv-x="1123" d="M75 551Q93 708 171 838T365 1037T618 1102Q752 1100 846 1029T984 834T1014 560L1012 541Q982 285 831 130T467 -20Q285 -17 176 114T69 460L72 517L75 551ZM191 517Q178 398 208 298T306 140T473 80Q581 78 670
135T818 296T893 526L896 559Q914 752 837 874T612 1000Q452 1005 336 877T193 535L191 517ZM392 1396Q394 1430 418 1453T477 1478Q512 1478 534 1455T554 1396Q552 1363 527 1340T469 1316Q434 1316 412 1338T392 1396ZM816 1395Q818 1429 844 1453T901 1477Q936
1478 958 1454T978 1395Q976 1361 951 1339T893 1315Q859 1315 837 1337T816 1395Z" />
<glyph unicode="&#xf7;" horiz-adv-x="1139" d="M1047 644H76L97 760H1068L1047 644ZM564 1088Q566 1123 591 1147T651 1172Q687 1173 710 1149T731 1088Q728 1053 703 1030T642 1005Q604 1005 582 1029T564 1088ZM426 291Q428 326 453 350T513 375Q549 376 572
352T593 291Q590 256 565 233T504 209T446 231T426 291Z" />
<glyph unicode="&#xf8;" horiz-adv-x="1116" d="M631 1104Q741 1100 833 1054L940 1214L1040 1213L901 1008Q1015 883 1021 680Q1024 475 953 316T750 66T459 -22Q361 -21 269 21L161 -140L61 -139L198 65Q76 187 69 396Q63 592 134 756T337 1014T631 1104ZM184
425Q181 262 257 164L775 960Q704 1002 625 1003Q502 1006 402 931T244 721T184 425ZM905 649Q908 800 840 904L324 112Q389 80 464 78Q649 74 774 235T905 649Z" />
<glyph unicode="&#xf9;" horiz-adv-x="1101" d="M764 136Q635 -26 408 -20Q255 -17 180 90T126 389L242 1082H360L245 386Q239 332 244 279Q251 187 299 137T431 84Q551 79 653 139T785 298L919 1082H1039L851 0H735L764 136ZM737 1245H637L461 1524H595L737 1245Z" />
<glyph unicode="&#xfa;" horiz-adv-x="1101" d="M764 136Q635 -26 408 -20Q255 -17 180 90T126 389L242 1082H360L245 386Q239 332 244 279Q251 187 299 137T431 84Q551 79 653 139T785 298L919 1082H1039L851 0H735L764 136ZM824 1524L974 1523L706 1246H594L824 1524Z" />
<glyph unicode="&#xfb;" horiz-adv-x="1101" d="M764 136Q635 -26 408 -20Q255 -17 180 90T126 389L242 1082H360L245 386Q239 332 244 279Q251 187 299 137T431 84Q551 79 653 139T785 298L919 1082H1039L851 0H735L764 136ZM945 1269L944 1257L836 1258L707
1439L513 1259L403 1258L404 1272L674 1526H747L945 1269Z" />
<glyph unicode="&#xfc;" horiz-adv-x="1101" d="M764 136Q635 -26 408 -20Q255 -17 180 90T126 389L242 1082H360L245 386Q239 332 244 279Q251 187 299 137T431 84Q551 79 653 139T785 298L919 1082H1039L851 0H735L764 136ZM406 1396Q408 1430 432 1453T491
1478Q526 1478 548 1455T568 1396Q566 1363 541 1340T483 1316Q448 1316 426 1338T406 1396ZM830 1395Q832 1429 858 1453T915 1477Q950 1478 972 1454T992 1395Q990 1361 965 1339T907 1315Q873 1315 851 1337T830 1395Z" />
<glyph unicode="&#xfd;" horiz-adv-x="954" d="M408 176L871 1082H1004L344 -174Q271 -320 190 -381T8 -440Q-30 -438 -88 -424L-76 -326L-16 -333Q152 -340 249 -135L325 16L116 1082H241L408 176ZM766 1524L916 1523L648 1246H536L766 1524Z" />
<glyph unicode="&#xfe;" horiz-adv-x="1126" d="M504 -21Q411 -19 329 18T196 136L96 -416H-23L316 1536H435L323 932Q463 1108 672 1102Q828 1098 912 986T998 680Q998 617 992 558L990 542Q954 279 825 126Q696 -26 504 -21ZM873 558L879 653Q882 813 822 904T640
999Q535 1001 450 948T305 792L216 269Q248 178 317 130T484 80Q635 75 737 196T873 558Z" />
<glyph unicode="&#xff;" horiz-adv-x="954" d="M408 176L871 1082H1004L344 -174Q271 -320 190 -381T8 -440Q-30 -438 -88 -424L-76 -326L-16 -333Q152 -340 249 -135L325 16L116 1082H241L408 176ZM348 1396Q350 1430 374 1453T433 1478Q468 1478 490 1455T510
1396Q508 1363 483 1340T425 1316Q390 1316 368 1338T348 1396ZM772 1395Q774 1429 800 1453T857 1477Q892 1478 914 1454T934 1395Q932 1361 907 1339T849 1315Q815 1315 793 1337T772 1395Z" />
<glyph unicode="&#x2013;" horiz-adv-x="1304" d="M1401 686H426L448 788H1424L1401 686Z" />
<glyph unicode="&#x2014;" horiz-adv-x="1543" d="M1444 686H143L173 788H1474L1444 686Z" />
<glyph unicode="&#x2018;" horiz-adv-x="363" d="M389 1555L458 1501Q353 1380 326 1257L302 1121H184L201 1230Q231 1422 389 1555Z" />
<glyph unicode="&#x2019;" horiz-adv-x="363" d="M227 1097L156 1153Q262 1277 288 1402L312 1536H429L411 1422Q380 1226 227 1097Z" />
<glyph unicode="&#x201a;" horiz-adv-x="352" d="M-28 -232L-95 -177Q8 -58 35 66L60 205H178L160 85Q127 -101 -28 -232Z" />
<glyph unicode="&#x201c;" horiz-adv-x="604" d="M390 1555L459 1501Q354 1380 327 1257L303 1121H185L202 1230Q232 1422 390 1555ZM633 1555L702 1501Q597 1380 570 1257L546 1121H428L445 1230Q475 1422 633 1555Z" />
<glyph unicode="&#x201d;" horiz-adv-x="608" d="M233 1097L162 1153Q268 1277 294 1402L318 1536H435L417 1422Q386 1226 233 1097ZM470 1097L399 1153Q505 1277 531 1402L555 1536H672L654 1422Q623 1226 470 1097Z" />
<glyph unicode="&#x201e;" horiz-adv-x="585" d="M-30 -241L-97 -186Q15 -53 39 87L65 236H183L160 90Q128 -107 -30 -241ZM207 -242L131 -185Q236 -62 263 75L291 236H410L384 71Q351 -113 207 -242Z" />
<glyph unicode="&#x2022;" horiz-adv-x="652" d="M165 745Q171 828 224 879T358 931Q434 931 479 884T525 755L524 718Q518 637 466 588T332 538Q256 538 210 586T164 710L165 745Z" />
<glyph unicode="&#x2039;" horiz-adv-x="601" d="M217 549L415 167H320L95 545L97 564L445 944H559L217 549Z" />
<glyph unicode="&#x203a;" horiz-adv-x="601" d="M253 944L477 562L475 542L127 162H13L354 556L157 944H253Z" />
</font>
</defs>
</svg>
